#TITLE:The Reaper;
#SUBTITLE:;
#ARTIST:Steve Vai;
#TITLETRANSLIT:;
#SUBTITLETRANSLIT:;
#ARTISTTRANSLIT:;
#CREDIT:;
#BANNER:reaper-ba.jpg;
#BACKGROUND:reaper-bg.jpg;
#LYRICSPATH:;
#CDTITLE:Mus1c.png;
#MUSIC:steve vai - the reaper.mp3;
#OFFSET:0.000;
#SAMPLESTART:19.900;
#SAMPLELENGTH:13.000;
#SELECTABLE:YES;
#BPMS:0.000=192.010;
#STOPS:;
#BGCHANGES:;
// cache tags:
#FIRSTBEAT:2.500;
#LASTBEAT:648.000;
#SONGFILENAME:Songs/Mus1c/The Reaper/The Reaper.sm;
#HASMUSIC:1;
#HASBANNER:1;
#MUSICLENGTH:206.451;
// end cache tags

//---------------dance-single - ----------------
#NOTES:
     dance-single:
     :
     Hard:
     11:
     0.955,1.000,0.790,1.000,0.877,857.000,163.000,360.000,0.000,106.000:
0000
0000
0000
0000
0000
2002
0000
0000
,
0000
0000
0000
0000
0000
3203
0000
0320
,
0000
0000
0000
0000
0000
2030
0000
3200
,
0000
0000
0000
0000
0302
0000
0000
0000
0000
0000
0000
0000
0103
2000
0000
0000
0000
0000
0000
0000
3020
0000
0000
0000
0000
0000
0000
0000
0000
0000
0000
0000
,
0000
0000
0000
1030
1000
1000
1000
1000
1000
1000
0200
0000
0000
0000
0000
0000
,
0000
0000
0000
0302
0010
2003
0100
3020
,
0001
2030
0100
3020
1000
0032
0010
2003
,
0100
3020
0001
0230
0010
2300
0000
0000
,
0000
0000
3001
0001
0001
0001
0001
0001
0001
0001
2000
0000
0000
0000
0000
0000
,
0000
0000
0000
0000
3200
0000
0000
0000
0000
0300
0200
0000
0000
0000
0000
0000
0000
0000
0000
0000
2300
0000
0000
0000
0000
3000
2000
0000
0000
0000
0000
0000
,
0000
0000
0000
0000
0000
0000
3000
0000
0000
0000
0001
0010
0100
0001
1000
0100
,
0010
1000
0100
0010
1000
0001
0100
1000
0020
0000
0000
0000
0030
0000
0000
0000
,
1000
1000
0100
0100
0010
0010
0001
0001
0000
0000
0200
0000
0000
0000
0000
0000
,
0000
0000
0000
0000
0000
0000
0000
0000
0000
0000
0000
0000
0000
0000
0000
0000
0000
0000
0000
0000
0320
0000
0000
0000
0000
0000
0130
1000
0000
0000
0000
0000
,
0000
0000
0100
0010
0000
0000
0000
0000
0000
0000
1000
0001
0000
0000
0000
0000
0020
0000
0000
0000
0000
0000
0000
0000
0000
0000
0000
0000
0000
0000
0000
0000
,
0000
0000
0000
0130
2000
0000
0000
0000
3002
0000
0000
0000
0000
0000
0000
0000
0203
0000
0000
0000
0000
0000
0000
0000
0000
0000
0000
0000
0000
0000
0000
0000
,
0000
0000
0310
0010
0010
0010
0010
0010
0010
0000
2020
0000
0000
0000
0000
0000
,
0030
3022
0000
0000
0030
0223
0000
0000
,
0030
2320
0000
0000
0000
0000
0000
0000
,
3000
1130
2200
0000
3000
2302
0000
0000
,
0000
3223
0000
0000
0030
0322
0000
0000
,
0030
2023
0000
0000
0000
3232
0000
0000
,
0300
0223
0000
0000
0000
1331
0000
0000
,
0000
0000
0000
0000
0000
0000
0200
0000
0000
0320
0000
0000
0000
0000
0000
0000
,
0030
0000
0000
0000
0000
0000
0000
0000
0000
1000
0100
0010
0001
0100
0010
0100
,
1000
0100
1000
0010
0001
1000
0100
0001
0010
0100
1000
0010
0001
1000
0100
0001
,
0100
0001
0010
0100
1000
0010
0100
0010
1000
0100
0001
0010
1000
0100
0010
0001
,
0010
1000
0001
0100
1000
0010
0100
0001
1000
0010
0100
0001
1000
0100
0001
0010
,
0100
1000
0001
0010
0100
1000
0020
0030
0000
0000
0200
0000
0000
0000
0300
0000
,
0010
1000
0010
1000
0020
0000
0000
0030
0000
0001
0100
0001
0100
0002
0000
0000
,
0003
0000
0010
1000
0010
1000
0010
1000
0020
0000
0000
0000
0030
1000
1000
0000
,
0000
0100
0100
0000
0000
0010
0020
0000
0000
0000
0000
0000
2030
0000
0000
0000
,
3000
0001
0001
0001
0001
0001
0001
0001
0200
0000
0000
0000
0000
0000
0000
0000
,
0000
0000
0000
0000
0300
0000
0001
0010
0100
1000
0020
0030
0000
0200
0000
0000
,
0000
0000
0000
0000
0000
0000
0000
0300
0000
0000
0000
1000
0010
0000
0000
0000
,
1100
0000
0000
0010
0001
0000
0000
0000
2001
0000
0000
0000
0000
0000
0000
0000
,
0000
0000
0000
0000
0000
0000
0000
0000
3001
0001
0001
0001
0002
0000
0000
0000
,
2003
0000
0000
0000
0000
0000
0000
0000
0000
0000
3200
0300
0200
0300
0200
0000
,
0000
0000
0000
0000
0000
0000
0302
0000
0003
0000
1000
0100
0010
0001
0010
0100
,
1000
0100
0010
0001
0010
0100
1000
0100
0010
0001
0020
0000
0000
0000
0000
0000
,
0000
2230
0000
0000
3300
0120
0000
0000
,
0000
0000
0000
0000
0000
0000
2031
0000
0000
0000
3110
0000
0000
1010
0000
0000
,
0000
0000
0000
0000
0010
0100
0000
0000
0000
0000
0000
0000
0000
0000
0000
0000
0010
0000
1000
0000
0000
0000
0000
0000
0001
0000
1000
0000
0000
0000
0000
0000
,
0000
0010
0100
0000
0000
0100
1000
0000
0101
0000
0000
0000
0000
0022
0000
0000
,
0000
0000
0000
0000
1000
1000
0000
0000
2033
0000
0000
0000
3001
0010
0100
1000
,
0020
0000
2030
0000
,
3000
0100
0100
0100
0100
0000
0002
0000
0000
0000
0000
0000
0000
0000
0000
0000
,
0003
0010
1000
0000
0000
0100
0001
0000
2000
0000
0000
0000
0000
0000
0000
0000
,
0000
3022
0000
0000
0000
2233
0000
0000
,
0300
3220
0000
0000
0030
0322
0000
0000
,
0030
2023
0000
0000
0000
0000
0000
0000
,
0000
3131
0202
0000
0003
2302
0000
0000
,
0000
3223
0000
0000
0030
0322
0000
0000
,
0000
2233
0000
0000
0300
3220
0000
0000
,
0000
0000
2332
0000
0000
0000
0000
0000
0000
0000
3113
0000
0000
0000
0022
0033
,
0022
0000
0033
0000
0000
0200
0300
0000
0000
0000
2020
3030
2020
0000
0000
0000
,
3032
0000
0000
0000
0203
0000
0300
0000
0000
0000
0001
0010
0100
1000
0010
0100
,
1000
0010
0100
0001
0100
0010
0001
1000
0100
0010
0001
1000
0100
0010
0100
1000
,
0001
0010
0100
0001
1000
0010
0100
0001
1000
0100
0010
0001
1000
0001
0010
0100
,
0001
1000
0100
0001
0010
1000
0100
0010
0001
0010
0001
0100
0010
1000
0100
0001
,
0010
0100
1000
0001
0100
1000
0100
0010
0100
0001
0010
0100
1000
0010
0100
0001
,
1000
0100
0010
1000
0001
0010
0100
1000
0100
0010
0001
0100
1000
0001
0100
0010
,
1000
0100
0010
0100
0001
0010
0100
0001
2000
0000
0000
0000
3100
0100
0100
0100
,
0100
0100
0100
0100
0100
0100
0020
0000
0000
0000
0000
0000
0030
1000
1000
1000
,
1000
1000
0010
0010
0010
0010
0010
0010
2000
0000
0000
0000
0000
0000
0000
0000
,
0000
3200
0000
0000
0322
0000
0033
0000
,
0000
0000
0000
0000
0100
0010
0000
0000
0100
1000
0000
0000
0010
0100
0000
0001
,
1000
0000
0000
0000
0010
1000
0000
0000
0001
0010
0100
1000
0100
0010
0001
0010
,
0100
1000
0220
0000
0000
0000
0330
0000
0000
0000
0020
0000
1030
0100
1000
0100
,
2000
0000
3000
0000
0010
0100
0010
0100
0000
0000
0000
0000
0200
0000
0300
0001
,
0100
0001
0100
0001
0100
0000
0000
0000
0010
1000
0000
0000
1000
0100
0000
0000
,
1000
0001
1000
0001
1000
0001
1000
0000
0000
0000
0000
0000
0000
0000
0000
0000
,
0010
0010
0010
0010
0010
0000
0000
0000
0012
0000
0000
0000
0000
0000
0000
0000
,
0000
2103
0000
0000
3220
0000
0330
0000
,
0000
0000
0000
0000
0001
0010
0000
0000
1000
0100
0000
0000
1000
0100
0000
0001
,
0010
0000
0000
0000
0100
0010
0000
0000
1000
0100
0010
0001
1000
0100
0010
0001
,
1000
0100
2002
0000
0000
0000
3003
0000
0000
0000
2000
0000
3000
0100
0010
0001
,
0010
0100
2000
0000
3200
0000
0000
0000
0000
0000
0320
0000
0032
0000
0003
0000
,
0000
1000
0100
0000
0010
1000
0000
0000
0110
0000
0000
0000
1000
0001
0000
0000
,
0000
0000
1100
0000
0000
0001
0010
0000
0220
0000
0000
0000
0000
0000
0330
0000
,
1000
0000
0000
1000
0000
0000
1000
0000
0000
1000
0000
0000
1000
0000
0000
1000
0000
0000
1000
0000
0000
1000
0000
0000
1000
0000
0000
0000
0220
0000
0000
0000
0000
0000
0000
0000
0330
0000
0000
0000
0000
0000
0000
0000
0000
0000
0000
0000
,
0000
2200
0000
3300
0000
0000
0000
0022
0033
0220
0330
2200
,
3300
2002
3003
0000
0000
0000
0000
0022
0000
0033
0000
0000
,
0000
0220
0000
0330
0000
0000
0000
2200
3300
0220
0330
0022
,
0033
2002
3003
0000
0000
0000
0000
0022
0000
0033
0000
0000
,
0000
2200
0000
3300
0000
0000
0000
2002
3003
0022
0033
2200
,
3300
0000
0000
0000
0220
0000
0000
0000
0330
0000
0000
0000
0000
0000
0000
0000
0000
0000
0000
0000
0000
0000
0000
0000
0000
0000
0000
1000
0022
0000
0000
0000
0000
0000
0000
0000
1033
0000
0000
1000
0000
0000
0000
0000
0000
0000
0000
0000
,
0001
0000
0000
0001
2200
0000
0000
0000
0000
0000
0000
0000
3310
0000
0000
0010
0000
0000
0000
0000
0000
0000
0000
0000
0000
0000
0000
0000
2020
0000
0000
0000
3030
0000
0000
0000
0202
0000
0000
0000
0303
0000
0000
0000
2200
0000
0000
0000
,
3300
0022
0033
0000
0000
0000
0000
0022
0000
0033
0000
0000
,
0000
0220
0000
0330
0000
0000
0000
2200
3300
0022
0033
2020
,
3030
0000
0000
0000
0202
0000
0000
0000
0303
0000
0000
0000
0000
0000
0000
0000
0000
0000
0000
0000
0000
0000
0000
0000
0000
0000
0000
0100
2002
0000
0000
0000
0000
0000
0000
0000
3013
0000
0000
0010
0000
0000
0000
0000
0000
0001
0000
0000
,
0001
2020
0000
3030
0000
0000
0000
0220
0330
2200
3300
0202
,
0303
0000
0000
0000
2002
0000
0000
0000
3003
0000
0000
0000
0000
0000
0000
0000
0000
0000
0000
0000
0000
0000
0000
0000
0000
0000
0000
0000
0002
0000
1000
0000
0000
0100
0000
0000
1003
0000
0000
0100
0000
0000
1000
0000
0000
0100
0000
0000
,
1000
0220
0000
0330
0000
0000
0000
2002
3003
0220
0330
2002
,
3003
0220
0330
0000
0000
0000
0000
2200
0000
3300
0220
0000
,
0330
2020
0000
3030
0202
0000
0303
0220
0000
0330
0022
0000
,
0033
0000
2002
0000
0000
0000
3003
0000
0220
0000
0000
0000
0330
0000
0000
2002
0000
0000
0000
0000
0000
0000
0000
0000
,
0000
0000
0000
0000
,
0000
3000
2023
0000
0000
0000
0000
0000
0000
0030
3022
0000
0000
0000
0000
0000
,
0000
2233
0000
0000
0000
0000
0000
0000
0000
0000
0000
0000
0000
0000
0000
0000
,
0000
0300
3202
0000
0000
0000
0000
0000
0000
0300
2203
0000
0000
0000
0000
0000
,
0000
0300
3220
0000
0000
0000
0000
0000
0000
0000
0000
0000
0000
0000
0000
0000
,
0000
0300
2230
0000
0000
0000
0000
0000
3000
2302
0000
0000
0000
0000
0000
0000
,
0000
0000
0000
0000
,
0000
0000
0000
0000
0000
3223
0000
0000
,
0000
0000
0000
0000
0000
2300
0000
0000
,
0000
3002
0000
0000
0000
0000
0000
0000
0000
2233
0000
0000
0000
0000
0000
0000
,
0300
3202
0000
0000
0000
0000
0000
0000
0000
0000
0000
0000
0000
0000
0000
0000
,
0000
2323
0000
0000
0000
0000
0000
0000
0000
0030
3022
0000
0000
0000
0030
0223
,
0000
2332
0000
0000
0000
0000
0000
0000
0000
0000
0000
0000
0000
0000
0000
0000
,
0003
3202
0000
0000
0000
0000
0000
0000
0000
0300
0223
0000
0000
0000
0000
0000
,
0000
0000
0000
0030
0010
0010
0010
0010
,
0010
0000
0000
0000
0010
0000
0000
0000
0010
0000
0000
0000
0310
0000
0000
0000
0000
0000
0000
0000
2001
0000
0000
0000
0000
0000
0000
0001
0000
0000
0000
0000
,
0000
0000
0000
0001
0000
0000
0000
0000
0000
0000
0001
0000
0000
0000
0001
0000
0000
0000
0000
0000
0000
0000
0000
0001
0000
0000
0000
0000
0000
0000
0000
0000
,
0001
0000
0000
0000
0000
0000
0000
0000
0001
0000
0000
0001
0000
0000
0000
0000
0001
0000
0000
0001
0000
0000
0000
0000
0000
0000
0000
0010
0000
0000
0000
0000
,
0000
0000
0000
0010
0000
0000
0000
0000
0000
0000
0010
0000
0000
0000
0010
0000
0000
0000
0000
0000
0000
0000
0000
0010
0000
0000
0000
0000
0000
0000
0000
0000
,
0010
0000
0000
0000
0000
0000
0000
0000
0010
0000
0000
0010
0000
0000
0000
0000
0010
0000
0000
0010
0000
0000
0000
0000
0000
0000
0000
0100
0000
0000
0000
0000
,
0000
0000
0000
0100
0000
0000
0000
0000
0000
0000
0000
0100
0000
0000
0000
0100
0000
0000
0000
0000
0000
0000
0000
0100
0000
0000
0000
0000
0000
0000
0000
0000
,
0000
0000
0100
0000
0000
0000
0000
0000
0000
0100
0000
0000
0000
0000
0000
0000
3110
0000
0000
0000
0001
0000
0010
0000
0100
0000
1000
0000
0100
0000
0010
0000
,
0001
0100
0010
0100
0010
1000
0100
1000
0100
0010
0100
1000
0010
0100
0001
1000
,
0010
0100
0001
1000
0001
1000
0001
0010
0100
0010
0100
0001
1000
0100
0001
0010
,
0100
1000
0001
1000
0100
0010
0001
1000
0010
1000
0001
0010
1000
0100
0010
0001
,
0010
0100
0010
0001
1000
0010
1000
0100
0001
0010
0001
0010
0001
0010
0001
0010
,
0100
1000
0100
1000
0100
1000
0100
1000
0010
0001
0100
0001
0010
0100
1000
0010
,
0001
0010
0100
1000
0001
0010
1000
0100
1000
0001
0010
0100
1000
0010
0100
0010
,
1000
0100
0010
0001
0010
0100
1000
0010
0001
1000
0100
0010
0001
0100
0010
1000
,
0001
0010
1000
0100
0010
0001
0010
0100
1001
0000
0010
0000
0100
0000
0001
0000
,
1000
0010
0100
0001
1000
0120
0000
0000
,
2031
0000
3000
0010
0100
1002
0000
0000
,
2103
0000
3000
0001
1000
0210
0000
0000
,
1302
0000
0003
1000
0100
0012
0000
0000
,
0123
0000
0000
2130
0000
3201
0000
0000
,
0312
0000
1023
0000
2031
0000
0000
3210
,
0000
0000
0300
0000
0100
0000
1000
0000
0001
0000
1100
0000
0000
0011
0000
0000
,
0000
0110
0000
0000
1010
0000
0000
0000
0110
0000
0000
0101
0000
0000
0000
2002
,
0000
0000
0000
3223
,
0000
0000
0000
0000
0300
2230
0000
0300
,
3202
0000
0300
0223
0000
0000
0000
0030
,
0322
0033
0022
0000
0000
0000
0000
0000
0000
0000
0000
0000
0003
0000
2032
0000
,
0000
0000
0000
0000
3000
2023
0000
0030
,
3022
0000
0030
2023
0000
0000
0000
0000
,
0000
0000
0000
0000
0000
0000
0000
3000
,
2230
0000
0000
0000
0000
0300
3220
0000
,
0000
2332
0000
0003
3202
0000
0000
0000
,
0000
0003
0322
0000
0033
0022
0000
0000
,
0000
2233
0000
0000
0000
0000
0000
0000
,
3000
2320
0000
0000
0000
0000
0000
0000
,
0000
3232
0000
0000
,
0000
0000
0000
0300
2203
0000
0000
0000
,
0000
0000
0000
0000
0000
0300
3220
0000
,
0000
0000
0000
0000
0000
0000
0000
0032
,
0000
0000
2003
0000
0000
3020
0000
0000
,
0032
0023
0000
0000
,
0000
0000
0000
2030
0000
0000
3002
0000
,
0023
0032
0000
2003
,
0000
3020
0000
0000
,
0000
2030
0000
3002
,
0000
2003
0000
0000
0000
0000
0000
3020
,
0000
0032
0000
2003
,
0000
0000
3020
0000
,
0000
0000
0000
0000
,
0000
0000
2332
0000
,
3003
0000
0000
0000
;
